<?xml version="1.0" encoding="UTF-8" standalone="no"?>
<!-- Creator: CorelDRAW X7 -->

<svg
   xml:space="preserve"
   width="1260px"
   height="411px"
   version="1.1"
   style="shape-rendering:geometricPrecision; text-rendering:geometricPrecision; image-rendering:optimizeQuality; fill-rule:evenodd; clip-rule:evenodd"
   viewBox="0 0 1260 411"
   id="svg2023"
   sodipodi:docname="Bokken_weiße Eiche_01_fr.svg"
   inkscape:version="1.2 (dc2aedaf03, 2022-05-15)"
   xmlns:inkscape="http://www.inkscape.org/namespaces/inkscape"
   xmlns:sodipodi="http://sodipodi.sourceforge.net/DTD/sodipodi-0.dtd"
   xmlns:xlink="http://www.w3.org/1999/xlink"
   xmlns="http://www.w3.org/2000/svg"
   xmlns:svg="http://www.w3.org/2000/svg"><sodipodi:namedview
   id="namedview2025"
   pagecolor="#ffffff"
   bordercolor="#000000"
   borderopacity="0.25"
   inkscape:showpageshadow="2"
   inkscape:pageopacity="0.0"
   inkscape:pagecheckerboard="0"
   inkscape:deskcolor="#d1d1d1"
   showgrid="false"
   inkscape:zoom="1.547619"
   inkscape:cx="555.04615"
   inkscape:cy="205.47692"
   inkscape:window-width="3840"
   inkscape:window-height="2054"
   inkscape:window-x="-11"
   inkscape:window-y="-11"
   inkscape:window-maximized="1"
   inkscape:current-layer="Ebene_x0020_1" />
 <defs
   id="defs1982">
  <font
   id="FontID1"
   horiz-adv-x="667"
   font-variant="normal"
   style="fill-rule:nonzero"
   font-style="normal"
   font-weight="400">
	<font-face
   font-family="Arial"
   id="font-face1832">
	</font-face>
   <missing-glyph
   id="missing-glyph1836"><path
     d="M0 0z"
     id="path1834" /></missing-glyph>
   <glyph
   unicode="f"
   horiz-adv-x="277"
   id="glyph1840"><path
     d="M86.9997 0l0 451.002 -77.9997 0 0 67.9958 77.9997 0 0 55.0037c0,34.8306 2.99999,60.6612 9.16532,77.5036 8.5039,22.6653 23.1731,41.1613 44.5038,55.3226 21.1653,14.1732 50.9998,21.1771 89.3264,21.1771 24.8385,0 52.1691,-2.99999 82.169,-8.83461l-13.1692 -77.0076c-18.3306,3.16534 -35.492,4.8425 -51.8266,4.8425 -26.6692,0 -45.4959,-5.66927 -56.6691,-17.0078 -10.996,-11.3267 -16.4999,-32.492 -16.4999,-63.4958l0 -47.5037 100.996 0 0 -67.9958 -99.9917 0 0 -451.002 -88.0036 0z"
     id="path1838" /></glyph>
   <glyph
   unicode="c"
   horiz-adv-x="500"
   id="glyph1844"><path
     d="M404.998 190.003l85.9957 -12c-9.49603,-59.173 -33.4959,-105.342 -72.3304,-138.838 -38.8345,-33.4959 -86.669,-50.1612 -143.161,-50.1612 -70.8304,0 -127.842,23.1613 -170.834,69.4958 -43.1691,46.3345 -64.6651,112.665 -64.6651,199.003 0,55.9958 9.33067,104.834 27.8267,146.834 18.5078,41.8345 46.6652,73.3344 84.6729,94.1571 37.8306,21.0117 78.9918,31.5117 123.661,31.5117 56.173,0 102.33,-14.1732 137.999,-42.6731 35.8345,-28.4999 58.8305,-68.9997 68.8344,-121.334l-85.0036 -13.0039c-8.16139,34.8424 -22.4999,61.0037 -43.3227,78.6729 -20.6692,17.5039 -45.673,26.3267 -74.9997,26.3267 -44.3384,0 -80.3383,-15.8267 -108.177,-47.4919 -27.6613,-31.8306 -41.492,-81.8383 -41.492,-150.507 0,-69.6611 13.3346,-120.165 39.992,-151.665 26.8345,-31.4999 61.6769,-47.3266 104.504,-47.3266 34.6652,0 63.4958,10.5 86.5036,31.6652 23.1613,20.9999 37.8306,53.4919 43.9959,97.3343z"
     id="path1842" /></glyph>
   <glyph
   unicode="t"
   horiz-adv-x="277"
   id="glyph1848"><path
     d="M256.995 78.4958l12 -77.6572c-24.6613,-5.17321 -46.8305,-7.84249 -66.1651,-7.84249 -31.8306,0 -56.4919,5.00785 -74.1611,15.1653 -17.5039,10.1693 -29.8345,23.3385 -37.0038,39.8384 -7.16926,16.4999 -10.6653,51.1652 -10.6653,103.996l0 299.007 -64.9958 0 0 67.9958 64.9958 0 0 128.338 88.0036 52.8305 0 -181.169 87.9918 0 0 -67.9958 -87.9918 0 0 -304.003c0,-25.1692 1.49999,-41.3384 4.66534,-48.4959 2.99999,-7.16926 7.99603,-12.8385 14.9999,-17.1732 7.00391,-4.16927 16.996,-6.33068 29.9999,-6.33068 9.66138,0 22.4999,1.16929 38.3266,3.49605z"
     id="path1846" /></glyph>
   <glyph
   unicode="q"
   horiz-adv-x="556"
   id="glyph1852"><path
     d="M396.495 -199.003l0 254.668c-13.6653,-19.1692 -32.8227,-34.9959 -57.3305,-47.6691 -24.496,-12.6614 -50.6691,-18.9921 -78.3304,-18.9921 -61.4998,0 -114.33,24.496 -158.834,73.6651 -44.3384,48.9919 -66.4958,116.326 -66.4958,201.661 0,52.0037 8.99996,98.6689 26.9999,140.007 18.1653,41.1613 44.3266,72.4958 78.6611,93.661 34.3345,21.3306 71.9997,32.0077 113.007,32.0077 64.1572,0 114.496,-26.8345 151.322,-80.669l0 69.6611 79.0036 0 0 -718.001 -88.0036 0zm-270.991 460.002c0,-66.6612 13.996,-116.669 41.9998,-149.999 27.992,-33.3306 61.4998,-49.9959 100.665,-49.9959 37.4999,0 69.6611,15.8267 96.8264,47.4919 26.9999,31.8424 40.4998,80.0076 40.4998,144.673 0,68.9997 -14.3267,120.826 -42.8266,155.669 -28.4999,34.8306 -61.8305,52.1573 -100.334,52.1573 -38.1613,0 -70.4997,-16.1574 -97.0036,-48.4959 -26.492,-32.3266 -39.8266,-82.8304 -39.8266,-151.499z"
     id="path1850" /></glyph>
   <glyph
   unicode="n"
   horiz-adv-x="556"
   id="glyph1856"><path
     d="M65.9997 0l0 518.998 79.0036 0 0 -73.6651c37.9959,56.5037 92.9996,84.6729 164.834,84.6729 31.3345,0 59.9998,-5.66927 86.1611,-16.8425 26.1731,-11.1614 45.8384,-25.996 58.8305,-44.1612 13.0039,-18.1653 22.1692,-39.8384 27.3424,-64.8305 3.16534,-16.3346 4.83069,-44.8345 4.83069,-85.4997l0 -318.672 -88.0036 0 0 315.329c0,35.8345 -3.3307,62.669 -10.1693,80.3383 -6.82674,17.6692 -18.9921,31.8306 -36.3306,42.4959 -17.3267,10.5 -37.8306,15.8385 -61.1691,15.8385 -37.3345,0 -69.4958,-11.8346 -96.661,-35.6692 -27.1652,-23.6692 -40.6652,-68.8344 -40.6652,-135.165l0 -283.168 -88.0036 0z"
     id="path1854" /></glyph>
   <glyph
   unicode="h"
   horiz-adv-x="556"
   id="glyph1860"><path
     d="M66.0001 0l0 715.997 87.9982 0 0 -257.664c40.8367,47.8347 92.3329,71.6635 154.666,71.6635 38.1674,0 71.3387,-7.50001 99.6675,-22.6654 28.1693,-15.1654 48.3367,-36.0001 60.5021,-62.6635 12.1654,-26.6693 18.1654,-65.5041 18.1654,-116.168l0 -328.501 -87.9982 0 0 328.164c0,43.8367 -9.50199,75.8387 -28.3347,95.8348 -18.9981,20.002 -45.6674,30.0001 -80.3328,30.0001 -25.8308,0 -50.1674,-6.66734 -72.9982,-20.1674 -22.8367,-13.5 -39.0001,-31.8308 -48.8328,-54.9981 -9.66734,-23.002 -14.504,-54.8328 -14.504,-95.4982l0 -283.335 -87.9982 0z"
     id="path1858" /></glyph>
   <glyph
   unicode="v"
   horiz-adv-x="500"
   id="glyph1864"><path
     d="M207.838 0l-195.838 518.998 94.1689 0 111 -310.829c12,-33.4959 23.1613,-68.3383 33.3306,-104.504 7.83068,27.3306 18.6732,60.1651 32.8345,98.6689l115.334 316.664 90.3304 0 -196.499 -518.998 -84.6611 0z"
     id="path1862" /></glyph>
   <glyph
   unicode="e"
   horiz-adv-x="556"
   id="glyph1868"><path
     d="M419.998 167.999l91.0036 -12c-14.1732,-52.8305 -40.6652,-94.0036 -79.3343,-123.165 -38.6691,-29.1731 -88.0036,-43.8305 -148.169,-43.8305 -75.6611,0 -135.661,23.3267 -179.999,69.9919 -44.3384,46.4998 -66.4958,112.003 -66.4958,196.169 0,86.9997 22.3346,154.665 67.1572,202.665 44.8345,48.177 103.004,72.1769 174.507,72.1769 69.1651,0 125.669,-23.5038 169.499,-70.6769 43.8305,-47.1612 65.8344,-113.492 65.8344,-198.991 0,-5.17321 -0.165354,-13.0039 -0.496061,-23.3385l-386.502 0c3.3307,-56.8344 19.3346,-100.5 48.3305,-130.665 28.8306,-30.1652 64.9958,-45.3305 108.165,-45.3305 32.1731,0 59.6691,8.49209 82.3343,25.4999 22.8306,16.996 40.8305,44.1612 54.1651,81.4957zm-287.999 140.999l289.003 0c-3.83857,43.6652 -14.9999,76.3343 -33.1652,98.1728 -27.8385,33.8266 -64.169,50.8226 -108.673,50.8226 -40.3345,0 -74.1611,-13.4999 -101.669,-40.4998 -27.3306,-26.9999 -42.4959,-63.1651 -45.4959,-108.496z"
     id="path1866" /></glyph>
   <glyph
   unicode="ê"
   horiz-adv-x="556"
   id="glyph1872"><path
     d="M420.001 168l90.9982 -12c-14.1674,-52.8308 -40.6654,-93.9982 -79.3348,-123.166 -38.6635,-29.1674 -87.9982,-43.8367 -148.164,-43.8367 -75.6675,0 -135.668,23.3327 -180,70.0041 -44.3328,46.5001 -66.5021,111.998 -66.5021,196.164 0,87.0002 22.3347,154.666 67.1694,202.666 44.8347,48.1714 102.998,72.1655 174.496,72.1655 69.1714,0 125.67,-23.4981 169.5,-70.6655 43.8367,-47.1674 65.8348,-113.498 65.8348,-198.998 0,-5.16733 -0.165355,-12.9981 -0.501969,-23.3327l-386.499 0c3.33662,-56.8348 19.3347,-100.5 48.3367,-130.666 28.8308,-30.1654 64.9962,-45.3367 108.166,-45.3367 32.1674,0 59.6635,8.50395 82.3348,25.5001 22.8308,17.002 40.8308,44.1674 54.1655,81.5021zm-288.001 141l288.999 0c-3.83268,43.6654 -15,76.3348 -33.1654,98.1675 -27.8327,33.8327 -64.1694,50.8347 -108.668,50.8347 -40.3347,0 -74.1675,-13.5 -101.664,-40.5001 -27.3367,-27.0001 -42.5021,-63.1714 -45.5021,-108.502zm144.998 357.001l-54.4962 -83.0021 -100.004 0 104.504 137.002 93.0002 0 111.496 -137.002 -99.9982 0 -54.5021 83.0021z"
     id="path1870" /></glyph>
   <glyph
   unicode="s"
   horiz-adv-x="500"
   id="glyph1876"><path
     d="M31.0038 154.995l86.9997 14.0078c4.83069,-34.8424 18.496,-61.4998 40.8305,-80.1729 22.3346,-18.496 53.6691,-27.8267 93.661,-27.8267 40.4998,0 70.4997,8.16139 90.1768,24.6613 19.4999,16.3346 29.3267,35.6692 29.3267,57.8384 0,19.8306 -8.83461,35.492 -26.3267,46.8305 -12.3425,7.83068 -42.3424,17.6692 -89.9996,29.8345 -64.3344,16.1692 -108.838,30.1652 -133.842,41.9998 -24.8267,12 -43.6652,28.3345 -56.4919,49.3345 -12.8385,20.8346 -19.3346,43.9959 -19.3346,69.3304 0,23.1613 5.32675,44.5038 15.8267,64.169 10.6653,19.6653 25.0038,35.9999 43.1691,48.9919 13.6653,10.0039 32.3385,18.5078 55.8305,25.5117 23.6692,6.9921 48.8384,10.5 75.8383,10.5 40.6652,0 76.3343,-5.83462 106.996,-17.6692 30.8385,-11.6692 53.5037,-27.6731 68.173,-47.6691 14.4921,-20.1731 24.6613,-46.9959 30.1652,-80.669l-86.0075 -12c-3.82676,26.9999 -15.1653,48.1652 -33.8266,63.3305 -18.6732,15.1653 -44.9998,22.6653 -79.169,22.6653 -40.1691,0 -68.9997,-6.66139 -86.1611,-19.996 -17.1732,-13.3346 -25.8424,-28.9959 -25.8424,-46.8305 0,-11.3385 3.50786,-21.6731 10.6653,-30.8385 7.16926,-9.33067 18.3424,-17.1613 33.6731,-23.3267 8.83461,-3.3307 34.4999,-10.8307 77.5036,-22.4999 61.9958,-16.4999 105.33,-30.1652 129.992,-40.6652 24.6731,-10.5 44.0077,-26.0078 58.0037,-46.0038 14.1614,-20.1613 21.1653,-45.1652 21.1653,-75.1651 0,-29.1731 -8.5039,-56.6691 -25.6653,-82.4997 -17.1613,-25.8306 -41.8345,-45.8384 -73.9958,-59.9998 -32.3385,-14.1732 -68.8344,-21.1653 -109.5,-21.1653 -67.3344,0 -118.842,13.996 -154.169,41.8345 -35.3384,27.992 -57.8384,69.3304 -67.6651,124.157z"
     id="path1874" /></glyph>
   <glyph
   unicode="b"
   horiz-adv-x="556"
   id="glyph1880"><path
     d="M146.999 0l-82.0036 0 0 716.005 88.0036 0 0 -255.507c37.1691,46.3345 84.4957,69.5076 142.169,69.5076 31.8306,0 62.1612,-6.34249 90.6611,-19.1692 28.4999,-12.8385 51.8384,-31.0038 70.3344,-54.1651 18.3306,-23.3385 32.8345,-51.3423 43.1691,-84.1768 10.5,-32.6574 15.6732,-67.8304 15.6732,-105.165 0,-88.665 -22.0039,-157.334 -65.8344,-205.665 -44.0077,-48.4959 -96.6728,-72.6611 -158.173,-72.6611 -61.1691,0 -109.169,25.4999 -143.999,76.3343l0 -65.3383zm-1.00393 263.338c0,-62.0076 8.5039,-106.842 25.3345,-134.503 27.6731,-45.1652 65.0076,-67.8304 112.169,-67.8304 38.5038,0 71.669,16.6653 99.4957,49.9959 28.0038,33.3306 41.9998,82.9957 41.9998,148.995 0,67.6769 -13.3228,117.507 -40.1573,149.669 -26.8345,32.1731 -59.3383,48.3305 -97.3343,48.3305 -38.5038,0 -71.669,-16.6653 -99.5075,-49.9959 -27.992,-33.3306 -41.9998,-81.4957 -41.9998,-144.661z"
     id="path1878" /></glyph>
   <glyph
   unicode=","
   horiz-adv-x="277"
   id="glyph1884"><path
     d="M88.9957 0l0 100.004 100.004 0 0 -100.004c0,-36.8384 -6.49604,-66.6612 -19.6653,-89.3382 -13.0039,-22.6653 -33.8384,-40.3227 -62.3383,-52.6651l-23.9999 38.0077c18.6732,8.16139 32.3385,20.1613 41.0077,35.8345 8.83461,15.8267 13.8307,38.492 14.8346,68.1611l-49.8423 0z"
     id="path1882" /></glyph>
   <glyph
   unicode="m"
   horiz-adv-x="833"
   id="glyph1888"><path
     d="M65.9997 0l0 518.998 79.0036 0 0 -73.3344c16.1574,25.3345 37.8306,45.8384 64.8305,61.1691 26.9999,15.496 57.6612,23.1731 92.1611,23.1731 38.3384,0 69.8383,-8.00784 94.3343,-23.8346 24.5078,-16.0039 41.8345,-38.1731 51.8384,-66.8383 41.3266,60.4958 94.8303,90.6729 160.83,90.6729 51.673,0 91.4996,-14.1732 119.173,-42.6731 27.8267,-28.4999 41.8345,-72.3304 41.8345,-131.503l0 -355.829 -88.0036 0 0 326.668c0,34.9959 -2.99999,60.3305 -8.66926,75.8265 -5.66927,15.5078 -16.0039,27.8385 -31.1692,37.3345 -14.9999,9.50784 -32.6574,14.1732 -52.8305,14.1732 -36.6613,0 -67.0037,-12.1653 -91.1689,-36.3306 -24.1653,-24.3424 -36.1652,-63.1769 -36.1652,-116.503l0 -301.168 -88.0036 0 0 336.837c0,38.9998 -7.15745,68.3265 -21.496,87.8264 -14.3267,19.4999 -37.8306,29.3385 -70.3344,29.3385 -24.6613,0 -47.4919,-6.50785 -68.4919,-19.4999 -20.9999,-13.0039 -36.177,-32.0077 -45.673,-57.1651 -9.33067,-25.0038 -13.996,-61.1691 -13.996,-108.342l0 -268.995 -88.0036 0z"
     id="path1886" /></glyph>
   <glyph
   unicode="g"
   horiz-adv-x="556"
   id="glyph1892"><path
     d="M49.8305 -43.0038l85.0036 -12c3.49605,-26.3267 13.4999,-45.4959 29.8345,-57.6612 21.8267,-16.1692 51.6612,-24.3306 89.5036,-24.3306 40.6652,0 72.1651,8.16139 94.3225,24.3306 22.1692,16.1692 37.1691,38.9998 44.9998,68.1611 4.49998,17.8346 6.6732,55.3344 6.34249,112.5 -38.5038,-45.3305 -86.3382,-67.9958 -143.669,-67.9958 -71.3383,0 -126.673,25.6653 -165.673,77.1611 -39.1652,51.3423 -58.6651,113.007 -58.6651,184.842 0,49.4998 8.99996,95.161 26.8345,136.996 17.8346,41.8345 43.8305,73.9958 77.8343,96.8382 34.0038,22.8306 73.9958,34.1692 120,34.1692 61.1691,0 111.673,-25.0038 151.334,-75.0115l0 64.0037 80.9997 0 0 -448.168c0,-80.8343 -8.16139,-137.999 -24.6613,-171.661 -16.3346,-33.6731 -42.5077,-60.3305 -77.9997,-79.8422 -35.6692,-19.4999 -79.4997,-29.3267 -131.503,-29.3267 -61.8305,0 -111.673,13.8307 -149.669,41.6691 -38.1613,27.6613 -56.5037,69.4958 -55.1691,125.326zm71.9997 311.337c0,-67.8304 13.4999,-117.33 40.4998,-148.499 27.1652,-31.1692 61.0037,-46.8305 101.669,-46.8305 40.4998,0 74.3383,15.496 101.834,46.4998 27.3306,30.992 40.9959,79.665 40.9959,145.995 0,63.3305 -14.1614,111.165 -42.3305,143.338 -28.1692,32.1613 -62.1612,48.1652 -101.834,48.1652 -39.1652,0 -72.3304,-15.8385 -99.8264,-47.5037 -27.3424,-31.6652 -41.0077,-78.6611 -41.0077,-141.165z"
     id="path1890" /></glyph>
   <glyph
   unicode="d"
   horiz-adv-x="556"
   id="glyph1896"><path
     d="M400.994 0l0 65.8344c-32.8227,-51.1652 -81.165,-76.8304 -144.992,-76.8304 -41.3384,0 -79.3343,11.3267 -113.834,34.1573 -34.6652,22.6771 -61.4998,54.5077 -80.669,95.1729 -19.0039,40.8305 -28.4999,87.6611 -28.4999,140.669 0,51.6612 8.66926,98.4917 25.8306,140.669 17.3385,41.9998 43.1691,74.3265 77.669,96.661 34.3345,22.4999 73.0036,33.6731 115.5,33.6731 31.3345,0 59.173,-6.6732 83.5036,-19.8424 24.3306,-13.1692 44.1612,-30.4959 59.4919,-51.6612l0 257.503 88.0036 0 0 -716.005 -82.0036 0zm-277.995 258.838c0,-66.3423 13.996,-115.842 42.1652,-148.677 28.0038,-32.8227 61.1691,-49.1573 99.3303,-49.1573 38.5038,0 71.1729,15.6614 98.1728,46.9959 26.8345,31.3345 40.3345,79.169 40.3345,143.503 0,70.6651 -13.6653,122.669 -41.1731,155.834 -27.3306,33.1652 -61.1572,49.6652 -101.326,49.6652 -39.1652,0 -71.8344,-15.8385 -98.1728,-47.6691 -26.1613,-31.8306 -39.3306,-82.0036 -39.3306,-150.495z"
     id="path1894" /></glyph>
   <glyph
   unicode="u"
   horiz-adv-x="556"
   id="glyph1900"><path
     d="M404.998 0l0 77.1611c-40.3345,-58.8305 -94.9957,-88.1571 -164.161,-88.1571 -30.5078,0 -59.0076,5.83462 -85.4997,17.4921 -26.5038,11.8346 -46.1691,26.5038 -59.0076,44.1731 -12.8267,17.8346 -21.8267,39.4959 -26.9999,65.1612 -3.49605,17.3385 -5.32675,44.6691 -5.32675,82.0036l0 321.164 87.9918 0 0 -287.16c0,-45.8384 1.84251,-76.8422 5.33856,-92.6689 5.50392,-23.1731 17.1613,-41.1731 35.1613,-54.3305 17.8346,-13.1692 39.8384,-19.8424 66.1769,-19.8424 26.3267,0 50.9998,6.6732 73.9958,20.1731 22.996,13.4999 39.3306,31.9959 49.0037,55.1691 9.49603,23.1613 14.3267,56.9998 14.3267,101.161l0 277.499 88.0036 0 0 -518.998 -79.0036 0z"
     id="path1898" /></glyph>
   <glyph
   unicode=" "
   horiz-adv-x="277"
   id="glyph1902" />
   <glyph
   unicode="."
   horiz-adv-x="277"
   id="glyph1906"><path
     d="M91.0036 0l0 100.004 99.9917 0 0 -100.004 -99.9917 0z"
     id="path1904" /></glyph>
   <glyph
   unicode="r"
   horiz-adv-x="332"
   id="glyph1910"><path
     d="M64.9958 0l0 518.998 79.0036 0 0 -79.4997c20.1613,36.8384 38.8345,61.1691 55.9958,72.8383 17.1732,11.8346 35.9999,17.6692 56.5037,17.6692 29.6692,0 59.8344,-9.34248 90.4957,-27.8385l-31.3227 -81.165c-21.3424,12 -42.6731,17.9999 -64.0037,17.9999 -19.1692,0 -36.3306,-5.83462 -51.4959,-17.3385 -15.1771,-11.4921 -26.0078,-27.496 -32.5038,-47.9998 -9.83854,-31.1692 -14.6692,-65.3265 -14.6692,-102.496l0 -271.168 -88.0036 0z"
     id="path1908" /></glyph>
   <glyph
   unicode="a"
   horiz-adv-x="556"
   id="glyph1914"><path
     d="M404.998 64.9958c-32.6692,-27.8267 -64.169,-47.3266 -94.3343,-58.8305 -30.1652,-11.5039 -62.4919,-17.1613 -97.1689,-17.1613 -56.9998,0 -100.83,13.8307 -131.492,41.6573 -30.6731,27.6731 -46.0038,63.1769 -46.0038,106.334 0,25.3345 5.83462,48.5077 17.3385,69.5076 11.6574,20.9999 26.8227,37.6652 45.4959,50.3266 18.8267,12.6732 39.8266,22.3346 63.3305,28.8424 17.3385,4.49998 43.4998,8.8228 78.3304,13.1574 71.0076,8.33855 123.507,18.5078 157.003,30.1652 0.330707,12 0.496061,19.6771 0.496061,22.8424 0,35.6573 -8.32674,60.8265 -24.992,75.4958 -22.4999,19.8306 -56.0077,29.6692 -100.334,29.6692 -41.5038,0 -72.1651,-7.33462 -91.8303,-21.8385 -19.8424,-14.4921 -34.3345,-40.1691 -43.8423,-77.1611l-85.9957 12c7.83068,36.8266 20.6692,66.6612 38.6691,89.3264 17.9999,22.6653 43.9959,40.0038 77.9997,52.3344 33.8266,12.1653 73.3344,18.3424 118.003,18.3424 44.3266,0 80.4918,-5.17321 108.33,-15.6732 27.6613,-10.5 48.1652,-23.5038 61.1691,-39.3306 12.9921,-15.8385 22.1574,-35.8345 27.496,-59.9998 2.83463,-14.9999 4.33463,-41.9998 4.33463,-80.8343l0 -116.669c0,-81.4957 1.8307,-133.003 5.4921,-154.83 3.50786,-21.8385 10.8425,-42.6731 21.5078,-62.669l-92.0075 0c-8.8228,18.496 -14.4921,40.1691 -16.996,64.9958zm-7.00391 194.999c-31.9959,-12.9921 -79.9957,-23.9999 -143.999,-32.9999 -36.3306,-5.1614 -61.9958,-10.996 -76.9958,-17.4921 -14.9999,-6.50785 -26.5038,-16.0039 -34.6652,-28.3345 -8.1732,-12.496 -12.3307,-26.3385 -12.3307,-41.6691 0,-23.1613 8.83461,-42.6612 26.6574,-58.1691 17.8346,-15.496 43.8423,-23.3267 78.0115,-23.3267 33.8266,0 63.9919,7.33462 90.4957,22.1574 26.3267,14.6692 45.8266,34.8424 58.1691,60.3423 9.49603,19.8306 14.1614,48.9919 14.1614,87.4957l0.496061 31.9959z"
     id="path1912" /></glyph>
   <glyph
   unicode="é"
   horiz-adv-x="556"
   id="glyph1918"><path
     d="M419.998 167.999l91.0036 -12c-14.1732,-52.8305 -40.6652,-94.0036 -79.3343,-123.165 -38.6691,-29.1731 -88.0036,-43.8305 -148.169,-43.8305 -75.6611,0 -135.661,23.3267 -179.999,69.9919 -44.3384,46.4998 -66.4958,112.003 -66.4958,196.169 0,86.9997 22.3346,154.665 67.1572,202.665 44.8345,48.177 103.004,72.1769 174.507,72.1769 69.1651,0 125.669,-23.5038 169.499,-70.6769 43.8305,-47.1612 65.8344,-113.492 65.8344,-198.991 0,-5.17321 -0.165354,-13.0039 -0.496061,-23.3385l-386.502 0c3.3307,-56.8344 19.3346,-100.5 48.3305,-130.665 28.8306,-30.1652 64.9958,-45.3305 108.165,-45.3305 32.1731,0 59.6691,8.49209 82.3343,25.4999 22.8306,16.996 40.8305,44.1612 54.1651,81.4957zm-287.999 140.999l289.003 0c-3.83857,43.6652 -14.9999,76.3343 -33.1652,98.1728 -27.8385,33.8266 -64.169,50.8226 -108.673,50.8226 -40.3345,0 -74.1611,-13.4999 -101.669,-40.4998 -27.3306,-26.9999 -42.4959,-63.1651 -45.4959,-108.496zm73.9958 274.003l64.0037 136.996 115.996 0 -106.996 -136.996 -73.0036 0z"
     id="path1916" /></glyph>
   <glyph
   unicode="P"
   horiz-adv-x="667"
   id="glyph1922"><path
     d="M76.9958 0l0 716.005 270.341 0c47.4919,0 83.8343,-2.33857 108.992,-6.83856 35.1731,-5.83462 64.6769,-16.996 88.4997,-33.3306 23.8346,-16.4999 43.0038,-39.5077 57.5076,-68.9997 14.4921,-29.5038 21.6613,-62.0076 21.6613,-97.4996 0,-60.673 -19.3346,-112.169 -58.1691,-154.169 -38.6573,-42.1652 -108.826,-63.1651 -210.165,-63.1651l-183.661 0 0 -292.003 -95.0075 0zm95.0075 376.002l184.995 0c61.3344,0 104.669,11.3267 130.499,34.1692 25.6653,22.8306 38.5038,54.8266 38.5038,96.3303 0,29.8345 -7.49997,55.4998 -22.6653,76.8304 -15.1653,21.3306 -35.1731,35.5038 -59.8344,42.3305 -16.0039,4.16927 -45.5077,6.34249 -88.3343,6.34249l-183.165 0 0 -256.003z"
     id="path1920" /></glyph>
   <glyph
   unicode="o"
   horiz-adv-x="556"
   id="glyph1926"><path
     d="M32.9999 259.499c0,95.8343 26.6692,166.83 80.1611,212.999 44.5038,38.3384 99.0114,57.5076 163.169,57.5076 71.1729,0 129.507,-23.3385 174.838,-70.0037 45.1652,-46.4998 67.8304,-111 67.8304,-193.169 0,-66.6612 -9.99209,-118.996 -29.9999,-157.169 -19.996,-38.1613 -49.1691,-67.8304 -87.4957,-88.9957 -38.1731,-21.1653 -80.0076,-31.6652 -125.173,-31.6652 -72.6611,0 -131.326,23.1613 -176.161,69.6611 -44.8345,46.4998 -67.169,113.503 -67.169,200.834zm89.9996 -0.165354c0,-66.3304 14.5039,-115.996 43.4998,-148.83 29.1731,-32.9999 65.669,-49.4998 109.83,-49.4998 43.6652,0 80.0076,16.4999 109.169,49.6652 28.9959,33.1652 43.4998,83.669 43.4998,151.499 0,64.0037 -14.6692,112.5 -43.8305,145.334 -29.1731,32.9999 -65.5037,49.4998 -108.838,49.4998 -44.1612,0 -80.6572,-16.3346 -109.83,-49.1691 -28.9959,-32.8345 -43.4998,-82.3343 -43.4998,-148.499z"
     id="path1924" /></glyph>
   <glyph
   unicode="l"
   horiz-adv-x="222"
   id="glyph1930"><path
     d="M64.0037 0l0 716.005 87.9918 0 0 -716.005 -87.9918 0z"
     id="path1928" /></glyph>
   <glyph
   unicode="à"
   horiz-adv-x="556"
   id="glyph1934"><path
     d="M404.998 64.9958c-32.6692,-27.8267 -64.169,-47.3266 -94.3343,-58.8305 -30.1652,-11.5039 -62.4919,-17.1613 -97.1689,-17.1613 -56.9998,0 -100.83,13.8307 -131.492,41.6573 -30.6731,27.6731 -46.0038,63.1769 -46.0038,106.334 0,25.3345 5.83462,48.5077 17.3385,69.5076 11.6574,20.9999 26.8227,37.6652 45.4959,50.3266 18.8267,12.6732 39.8266,22.3346 63.3305,28.8424 17.3385,4.49998 43.4998,8.8228 78.3304,13.1574 71.0076,8.33855 123.507,18.5078 157.003,30.1652 0.330707,12 0.496061,19.6771 0.496061,22.8424 0,35.6573 -8.32674,60.8265 -24.992,75.4958 -22.4999,19.8306 -56.0077,29.6692 -100.334,29.6692 -41.5038,0 -72.1651,-7.33462 -91.8303,-21.8385 -19.8424,-14.4921 -34.3345,-40.1691 -43.8423,-77.1611l-85.9957 12c7.83068,36.8266 20.6692,66.6612 38.6691,89.3264 17.9999,22.6653 43.9959,40.0038 77.9997,52.3344 33.8266,12.1653 73.3344,18.3424 118.003,18.3424 44.3266,0 80.4918,-5.17321 108.33,-15.6732 27.6613,-10.5 48.1652,-23.5038 61.1691,-39.3306 12.9921,-15.8385 22.1574,-35.8345 27.496,-59.9998 2.83463,-14.9999 4.33463,-41.9998 4.33463,-80.8343l0 -116.669c0,-81.4957 1.8307,-133.003 5.4921,-154.83 3.50786,-21.8385 10.8425,-42.6731 21.5078,-62.669l-92.0075 0c-8.8228,18.496 -14.4921,40.1691 -16.996,64.9958zm-7.00391 194.999c-31.9959,-12.9921 -79.9957,-23.9999 -143.999,-32.9999 -36.3306,-5.1614 -61.9958,-10.996 -76.9958,-17.4921 -14.9999,-6.50785 -26.5038,-16.0039 -34.6652,-28.3345 -8.1732,-12.496 -12.3307,-26.3385 -12.3307,-41.6691 0,-23.1613 8.83461,-42.6612 26.6574,-58.1691 17.8346,-15.496 43.8423,-23.3267 78.0115,-23.3267 33.8266,0 63.9919,7.33462 90.4957,22.1574 26.3267,14.6692 45.8266,34.8424 58.1691,60.3423 9.49603,19.8306 14.1614,48.9919 14.1614,87.4957l0.496061 31.9959zm-35.9999 323.007l-70.9958 0 -112.996 136.996 117.992 0 65.9997 -136.996z"
     id="path1932" /></glyph>
   <glyph
   unicode="i"
   horiz-adv-x="222"
   id="glyph1938"><path
     d="M65.9997 616.002l0 100.004 88.0036 0 0 -100.004 -88.0036 0zm0 -616.002l0 518.998 88.0036 0 0 -518.998 -88.0036 0z"
     id="path1936" /></glyph>
  </font>
  <font
   id="FontID0"
   horiz-adv-x="739"
   font-variant="normal"
   style="fill-rule:nonzero"
   font-weight="700">
	<font-face
   font-family="Century Gothic"
   id="font-face1941">
	</font-face>
   <missing-glyph
   id="missing-glyph1945"><path
     d="M0 0z"
     id="path1943" /></missing-glyph>
   <glyph
   unicode="n"
   horiz-adv-x="600"
   id="glyph1949"><path
     d="M67 531l133 0 0 -54.6654c30.1654,25.3307 57.6654,42.8307 82.1654,52.8307 24.5,9.83465 49.6693,14.8346 75.3346,14.8346 52.6654,0 97.5,-18.3346 134.165,-55 30.8346,-31.3346 46.3346,-77.5 46.3346,-138.5l0 -350.5 -132 0 0 232.165c0,63.3346 -2.83465,105.335 -8.5,126 -5.66535,20.8346 -15.6654,36.6693 -29.6654,47.5 -14.1693,10.8346 -31.6693,16.3346 -52.3346,16.3346 -27,0 -50.1654,-9 -69.5,-27 -19.3346,-18 -32.6654,-43 -40.1654,-74.6654 -3.83465,-16.6693 -5.83465,-52.5 -5.83465,-107.669l0 -212.665 -133 0 0 531z"
     id="path1947" /></glyph>
   <glyph
   unicode="k"
   horiz-adv-x="580"
   id="glyph1953"><path
     d="M68 736l133 0 0 -423.835 196.665 218.835 166.335 0 -227.665 -253.5 256.165 -277.5 -165.5 0 -226 244.835 0 -244.835 -133 0 0 736z"
     id="path1951" /></glyph>
   <glyph
   unicode="e"
   horiz-adv-x="640"
   id="glyph1957"><path
     d="M598.5 228l-427.5 0c6.16535,-37.8346 22.6654,-68 49.3346,-90.5 26.6654,-22.3346 60.8307,-33.5 102.165,-33.5 49.6654,0 92.1654,17.5 127.835,52.5l111.665 -52.8346c-27.8346,-39.6654 -61.3346,-69 -100.165,-88.1654 -39,-19 -85.1693,-28.5 -138.669,-28.5 -83,0 -150.665,26.1654 -202.831,78.6654 -52.1693,52.3346 -78.3346,118 -78.3346,196.835 0,80.8346 26.1654,148 78.3346,201.335 52.1654,53.5 117.5,80.1654 196.331,80.1654 83.5,0 151.5,-26.6654 203.835,-79.8346 52.3346,-53.3307 78.5,-123.5 78.5,-211l-0.5 -25.1654zm-132.5 104c-8.83465,29 -26.1654,52.6654 -52,70.8346 -26,18.1654 -56,27.1654 -90.3346,27.1654 -37.1654,0 -69.6654,-10.1654 -97.8307,-30.6654 -17.5,-12.6693 -33.8346,-35.1693 -48.8346,-67.3346l289 0z"
     id="path1955" /></glyph>
   <glyph
   unicode="B"
   horiz-adv-x="580"
   id="glyph1961"><path
     d="M81 0l0 718 113.335 0c65.8307,0 113.831,-4.16535 144.331,-12.6654 43.1693,-11.5 77.5,-32.6693 103,-63.5 25.5,-31 38.3346,-67.5 38.3346,-109.5 0,-27.3346 -5.83465,-52.1693 -17.3346,-74.5 -11.5,-22.3346 -30.3307,-43.3346 -56.3307,-62.8346 43.5,-20.5 75.3307,-46 95.5,-76.8346 20.1654,-30.6654 30.1654,-67 30.1654,-109 0,-40.3307 -10.5,-77 -31.3346,-110.165 -21,-33.1654 -48,-58 -81,-74.3346 -33,-16.5 -78.5,-24.6654 -136.665,-24.6654l-202 0zm136 588l0 -152 30.5 0c34,0 59.3346,7 75.8346,21.1654 16.5,14 24.6654,33.1693 24.6654,57.3346 0,22.5 -7.83465,40.3346 -23.5,53.6654 -15.6654,13.1693 -39.5,19.8346 -71.5,19.8346l-36 0zm0 -274l0 -184 34.6654 0c57.5,0 96.3346,7.16535 116.335,21.5 20,14.3346 30,35.1654 30,62.5 0,30.8346 -11.6654,55.3346 -35.1654,73.1654 -23.5,17.8346 -62.5,26.8346 -117,26.8346l-28.8346 0z"
     id="path1959" /></glyph>
   <glyph
   unicode="o"
   horiz-adv-x="640"
   id="glyph1965"><path
     d="M316.835 544c50.1654,0 97.3307,-12.5 141.5,-37.5 44.3307,-25 78.6654,-58.8346 103.5,-101.665 24.8307,-43 37.1654,-89.1693 37.1654,-138.835 0,-50 -12.5,-96.6654 -37.3346,-140.165 -25,-43.5 -59,-77.5 -102,-102 -43.1654,-24.5 -90.5,-36.8346 -142.331,-36.8346 -76.3346,0 -141.5,27 -195.335,81 -54,54.1654 -81,119.835 -81,197 0,82.8346 30.5,151.835 91.5,207 53.5,48 114.835,72 184.335,72zm2 -125c-41.5,0 -76,-14.3346 -103.5,-43 -27.5,-28.8346 -41.3346,-65.5 -41.3346,-110.335 0,-46 13.6654,-83.3307 40.8346,-111.831 27.1654,-28.5 61.6654,-42.8346 103.5,-42.8346 41.6654,0 76.3307,14.5 104.165,43.3346 27.6654,28.8307 41.5,66 41.5,111.331 0,45.5 -13.6654,82.3346 -40.8346,110.835 -27.1654,28.3346 -62,42.5 -104.331,42.5z"
     id="path1963" /></glyph>
  </font>
</defs>
</svg>
